25 de abril de 2014, 04:34:40
Bienvenido(a), Visitante. Por favor, ingresa o regístrate.
489730 Mensajes en 465419 Temas - por 3181 Usuarios - Último usuario: willvn



The Walking Dead T.3 [HDiTunes 720p] [DUAL] [1.5GB] [ MultiHost ] 1 Link [Mega] (Leído 87 veces)

0 Usuarios y 1 Visitante están viendo este tema.

Desconectado Nukety

  • Posteador Adicto
  • *****
  • Mensajes: 2301
  • Sexo: Femenino
  • Subscribete a mis Tweets @Nukety

 


The Walking Dead | Temporada 3 | Capitulos [04/16]



· · · · · · · · · · · · · · · : : |  Ficha Técnica  | : : · · · · · · · · · · · · · · ·

Título: The Walking Dead
Título Original: The Walking Dead
Año: 2010
País: USA
Duración: 45 min.
Género: Terror | SciFi
Creador:  Frank Darabont
Productora:  AMC


· · · · · · · · · · · · · · · : : |  Reparto  | : : · · · · · · · · · · · · · · ·

  ✭ Andrew Lincoln | ✭ Jon Bernthal | ✭ Sarah Wayne Callies | ✭ Laurie Holden | ✭ Jeffrey DeMunn | ✭ Steven Yeun | ✭ Norman Reedus | ✭ Emma Bell | ✭ Chandler Riggs | ✭ IronE Singleton


· · · · · · · · · · · · · · · : : |  Sinopsis  | : : · · · · · · · · · · · · · · ·

Sinopsis: Narra la historia de un apocalipsis zombie. Un grupo de supervivientes, dirigidos por el policía Rick Grimes, viaja a través de los Estados Unidos tratando de poner sus vidas a salvo. Rick es el ayudante del Sheriff de un pueblo de Georgia, que epermaneció en coma durante la irrupción de la plaga. Aunque el leit motiv de la serie -cuyo episodio piloto está dirigido y escrito por Frank Darabont- sea el apocalipsis zombie, la narración se centra más en las relaciones entre los personajes, su evolución y comportamiento en las situaciones críticas.

<a href="http://www.youtube.com/watch?v=lgvgAFzldMs" target="_blank">http://www.youtube.com/watch?v=lgvgAFzldMs</a>

 WebSite http://www.amctv.com/shows/the-walking-dead
 FilmAffinity http://www.foxtv.es/thewalkingdead
 IMDB http://www.imdb.es/title/tt1520211/
 YouTube http://www.youtube.com/v/lgvgAFzldMs


Temporada: 3
Nº de Capitulos: 16
Rip: HDiTunes
Formato: 720p
Contenedor: MKV
Audio: Castellano e Inglés
Tamaño: 1.5GB
Rippeo:
General
Format                                   : Matroska
Format version                           : Version 2
File size                                : 1.45 GiB
Duration                                 : 43mn 7s
Overall bit rate                         : 4 802 Kbps


Video
ID                                       : 1
Format                                   : AVC
Format/Info                              : Advanced Video Codec
Format profile                           : High@L3.1
Format settings, CABAC                   : No
Format settings, ReFrames                : 2 frames
Format settings, GOP                     : N=1
Codec ID                                 : V_MPEG4/ISO/AVC
Duration                                 : 43mn 7s
Width                                    : 1 280 pixels
Height                                   : 720 pixels
Display aspect ratio                     : 16:9
Frame rate mode                          : Constant
Frame rate                               : 23.976 fps
Color space                              : YUV
Chroma subsampling                       : 4:2:0
Bit depth                                : 8 bits
Scan type                                : Progressive
Language                                 : Spanish
Default                                  : Yes
Forced                                   : Yes


Audio #1
ID                                       : 2
Format                                   : AC-3
Format/Info                              : Audio Coding 3
Mode extension                           : CM (complete main)
Format settings, Endianness              : Big
Codec ID                                 : A_AC3
Duration                                 : 43mn 7s
Bit rate mode                            : Constant
Bit rate                                 : 192 Kbps
Channel(s)                               : 2 channels
Channel positions                        : Front: L R
Sampling rate                            : 48.0 KHz
Bit depth                                : 16 bits
Compression mode                         : Lossy
Stream size                              : 59.2 MiB (4%)
Language                                 : Spanish
Default                                  : Yes
Forced                                   : Yes

Audio #2
ID                                       : 3
Format                                   : AC-3
Format/Info                              : Audio Coding 3
Mode extension                           : CM (complete main)
Format settings, Endianness              : Big
Codec ID                                 : A_AC3
Duration                                 : 43mn 7s
Bit rate mode                            : Constant
Bit rate                                 : 384 Kbps
Channel(s)                               : 6 channels
Channel positions                        : Front: L C R, Side: L R, LFE
Sampling rate                            : 48.0 KHz
Bit depth                                : 16 bits
Compression mode                         : Lossy
Stream size                              : 118 MiB (8%)
Language                                 : English
Default                                  : No
Forced                                   : No

Audio #3
ID                                       : 4
Format                                   : AAC
Format/Info                              : Advanced Audio Codec
Format profile                           : LC
Codec ID                                 : A_AAC
Duration                                 : 43mn 7s
Channel(s)                               : 2 channels
Channel positions                        : Front: L R
Sampling rate                            : 48.0 KHz
Compression mode                         : Lossy
Language                                 : English
Default                                  : No
Forced                                   : No

Text #1
ID                                       : 5
Format                                   : UTF-8
Codec ID                                 : S_TEXT/UTF8
Codec ID/Info                            : UTF-8 Plain Text
Language                                 : Spanish
Default                                  : Yes
Forced                                   : Yes

Text #2
ID                                       : 6
Format                                   : UTF-8
Codec ID                                 : S_TEXT/UTF8
Codec ID/Info                            : UTF-8 Plain Text
Language                                 : Spanish
Default                                  : No
Forced                                   : No

Text #3
ID                                       : 7
Format                                   : UTF-8
Codec ID                                 : S_TEXT/UTF8
Codec ID/Info                            : UTF-8 Plain Text
Language                                 : English
Default                                  : No
Forced                                   : No


Uploaded
EP01: http://ul.to/buhplmh3
EP02: http://ul.to/wpmztx7d
EP03: http://ul.to/16ym124g
EP04: http://ul.to/e44h1yg9

· · · · · · · · · · · · · · · : : |  Otras Temporadas  | : : · · · · · · · · · · · · · · ·



★ Temporada 1 en HD Aquí
★ Temporada 2 en HD Aquí
★ Temporada 3 en HD Aquí


☆ Temporada 1 en SD Aquí
☆ Temporada 2 en SD Aquí
☆ Temporada 3 en SD Aquí


Post Pegado: 13 de noviembre de 2012, 11:49:18

. : : ✚ Añadido Nuevo Episodio : : .

Capitulo: 04

Todos mis aportes los subiré a Uploaded, si necesitas una cuenta premium en Up.to anímate y hazlo a través de mi link de referido http://ul.to/ref/2830534
 La contraseña de los aportes es "Nukety"

Tags:
 

Comentarios de Facebook

Related Topics

  Asunto / Iniciado por Respuestas Último mensaje
0 Respuestas
189 Vistas
Último mensaje 18 de octubre de 2012, 06:42:56
por Nukety
0 Respuestas
151 Vistas
Último mensaje 09 de noviembre de 2012, 13:37:50
por Nukety
0 Respuestas
14 Vistas
Último mensaje 26 de febrero de 2014, 14:15:10
por roc72


Sos el Visitante
© XPLAYO
Bienvenid@ Visitante Registrate Gratis y Descarga Sin Restricciones