31 de julio de 2014, 02:21:50
Bienvenido(a), Visitante. Por favor, ingresa o regístrate.
579874 Mensajes en 555570 Temas - por 3414 Usuarios - Último usuario: joao montes



Recien Cazado [DvdRip][Latino][Comedia][2009] [Mega] (Leído 1525 veces)

0 Usuarios y 1 Visitante están viendo este tema.

profesoru

  • Visitante

Recien Cazado [DvdRip][Latino][Comedia][2009]
« : 27 de noviembre de 2011, 07:01:32 »
 


Recien Cazado [DvdRip][Latino][Comedia][2009]



Ficha Tecnica
Título original: Recién Cazado.
Dirección: René Bueno.
Actores: Jaime Camil y Gabriela Guevara.
Guión: René Bueno.
Producción: René Bueno y Luisa Gómez da Silva.
Compañías: Hispana de Producción.
Género: Comedia.
País: México.
Duración: 109 min
Idioma: Español.
Año: 2009.

Sinopsis
Sebastián (Jaime Camil), un joven y exitoso enólogo, es el soltero por excelencia, acostumbrado a una vida de excesos, lujos y muchas mujeres, un día despierta al lado de Alexa (Gabriela Vergara), una hermosa bióloga marina con quien, sin recordarlo y motivado por una tremenda borrachera, contrajo matrimonio la noche anterior.
Aunque Sebastián agota todos los recursos por anular su espontáneo matrimonio, Alexa lo amenaza con quitarle la mitad de sus bienes si no acepta que ella se quede a vivir con él al menos tres semanas para asegurarse de no estar embarazada.
Recién Cazado es una divertida lucha de sexos, en donde Sebastián y Alexa tendrán que aprender a tolerarse, convivir, compartir y dejar atrás sus más intensas extravagancias de solteros para dar paso al verdadero amor.

Capturas:


Informacion Tecnica:
DvdRip
Español Latino

Format                                   : AVI
Format/Info                              : Audio Video Interleave
File size                                : 1.06 GiB
Duration                                 : 1h 49mn
Overall bit rate                         : 1 394 Kbps
Writing application                      : VirtualDubMod 1.5.10.2 (build 2540/release)
Writing library                          : VirtualDubMod build 2540/release
Video
ID                                       : 0
Format                                   : MPEG-4 Visual
Format profile                           : Advanced Simple@L5
Format settings, BVOP                    : 1
Format settings, QPel                    : No
Format settings, GMC                     : No warppoints
Format settings, Matrix                  : Custom
Codec ID                                 : XVID
Codec ID/Hint                            : XviD
Duration                                 : 1h 49mn
Bit rate                                 : 1 129 Kbps
Width                                    : 512 pixels
Height                                   : 384 pixels
Display aspect ratio                     : 4:3
Frame rate                               : 23.976 fps
Color space                              : YUV
Chroma subsampling                       : 4:2:0
Bit depth                                : 8 bits
Scan type                                : Progressive
Compression mode                         : Lossy
Bits/(Pixel*Frame)                       : 0.239
Stream size                              : 883 MiB (81%)
Writing library                          : XviD 1.2.1 (UTC 2008-12-04)
Audio
ID                                       : 1
Format                                   : AC-3
Format/Info                              : Audio Coding 3
Mode extension                           : CM (complete main)
Codec ID                                 : 2000
Duration                                 : 1h 49mn
Bit rate mode                            : Constant
Bit rate                                 : 256 Kbps
Channel(s)                               : 2 channels
Channel positions                        : Front: L R
Sampling rate                            : 48.0 KHz
Bit depth                                : 16 bits
Compression mode                         : Lossy
Stream size                              : 200 MiB (18%)
Alignment                                : Split accross interleaves
Interleave, duration                     : 42 ms (1.00 video frame)
Interleave, preload duration             : 500 ms

Descargar:
http://www.wupload.com/file/2577544677


Tags:
 

Comentarios de Facebook

Related Topics

  Asunto / Iniciado por Respuestas Último mensaje
0 Respuestas
61 Vistas
Último mensaje 02 de mayo de 2013, 15:50:25
por Invulnever
0 Respuestas
40 Vistas
Último mensaje 13 de julio de 2013, 13:00:44
por Fanton
0 Respuestas
64 Vistas
Último mensaje 01 de agosto de 2013, 05:37:24
por CALIPSO1234
0 Respuestas
37 Vistas
Último mensaje 04 de agosto de 2013, 18:45:20
por rafaelituz
0 Respuestas
27 Vistas
Último mensaje 22 de julio de 2014, 13:06:29
por makano77


Sos el Visitante
© XPLAYO
Bienvenid@ Visitante Registrate Gratis y Descarga Sin Restricciones