19 de abril de 2014, 11:42:51
Bienvenido(a), Visitante. Por favor, ingresa o regístrate.
484625 Mensajes en 460314 Temas - por 3170 Usuarios - Último usuario: distrifer



Mata al irlandés (2011)[DVDRip][Castellano][Acción] [Mega] (Leído 92 veces)

0 Usuarios y 1 Visitante están viendo este tema.

Desconectado abogao

  • Posteador Adicto
  • *****
  • Mensajes: 2048
  • Viva Xplayo.com

Mata al irlandés (2011)[DVDRip][Castellano][Acción]
« : 16 de septiembre de 2012, 22:12:24 »
 







TÍTULO ORIGINAL Kill the Irishman
AÑO 2011
DURACIÓN 102 min.
PAÍS Estados Unidos
DIRECTOR Jonathan Hensleigh
GUIÓN Jonathan Hensleigh, Jeremy Walters (Libro: Rick Porrello)
MÚSICA Patrick Cassidy
FOTOGRAFÍA Karl Walter Lindenlaub
REPARTO Ray Stevenson, Val Kilmer, Christopher Walken, Vincent D'Onofrio, Linda Cardellini, Vinnie Jones, Laura Ramsey, Fionnula Flanagan, Paul Sorvino, Robert Davi, Bob Gunton, Steve Schirripa
PRODUCTORA Code Entertainment / Dundee Entertainment / Sweet William Productions
GÉNERO Acción. Thriller | Crimen. Mafia. Basado en hechos reales. Años 60. Años 70

SINOPSIS:
Basada en una historia real. Danny Green es un gángster de origen irlandés que protagonizó en los años 70 los episodios más turbios de la ciudad de Cleveland. Su tendencia a meterse en toda clase de problemas lo convierte en una figura conflictiva e incómoda dentro del mundo de la mafia. Son muchos los que querrían eliminarlo, pero no les resultará nada fácil.




Mata.Irlandes.DVDRip.fanatico.avi
Format                                   : AVI
Format/Info                              : Audio Video Interleave
File size                                : 1.80 GiB
Duration                                 : 1h 46mn
Overall bit rate                         : 2 420 Kbps
Writing application                      : VirtualDubMod 1.6.0.0 SURROUND (build 2560/release)
Writing library                          : VirtualDubMod build 2560/release

Video
ID                                       : 0
Format                                   : MPEG-4 Visual
Format profile                           : Advanced Simple@L5
Format settings, BVOP                    : 2
Format settings, QPel                    : No
Format settings, GMC                     : No warppoints
Format settings, Matrix                  : Default (MPEG)
Codec ID                                 : XVID
Codec ID/Hint                            : XviD
Duration                                 : 1h 46mn
Bit rate                                 : 1 962 Kbps
Width                                    : 720 pixels
Height                                   : 400 pixels
Display aspect ratio                     : 16:9
Frame rate                               : 23.976 fps
Color space                              : YUV
Chroma subsampling                       : 4:2:0
Bit depth                                : 8 bits
Scan type                                : Progressive
Compression mode                         : Lossy
Bits/(Pixel*Frame)                       : 0.284
Stream size                              : 1.46 GiB (81%)
Writing library                          : XviD 64

Audio
ID                                       : 1
Format                                   : AC-3
Format/Info                              : Audio Coding 3
Mode extension                           : CM (complete main)
Codec ID                                 : 2000
Duration                                 : 1h 46mn
Bit rate mode                            : Constant
Bit rate                                 : 448 Kbps
Channel(s)                               : 6 channels
Channel positions                        : Front: L C R, Side: L R, LFE
Sampling rate                            : 48.0 KHz
Bit depth                                : 16 bits
Compression mode                         : Lossy
Stream size                              : 342 MiB (19%)
Alignment                                : Split accross interleaves
Interleave, duration                     : 42 ms (1.00 video frame)
Interleave, preload duration             : 500 ms







http://www.sharpfile.com/v8wc64ydz/Mata.Irlandes.DVDRip.fanatico.avi.part4.rar.html
http://www.sharpfile.com/m92q8kx4w/Mata.Irlandes.DVDRip.fanatico.avi.part3.rar.html
http://www.sharpfile.com/bnd23x86pykm/Mata.Irlandes.DVDRip.fanatico.avi.part2.rar.html
http://www.sharpfile.com/r2pwjfnc4q/Mata.Irlandes.DVDRip.fanatico.avi.part1.rar.html


Tags:
 

Comentarios de Facebook

Related Topics

  Asunto / Iniciado por Respuestas Último mensaje
0 Respuestas
82 Vistas
Último mensaje 17 de mayo de 2013, 19:50:53
por relampago1
0 Respuestas
9 Vistas
Último mensaje 26 de marzo de 2014, 17:28:48
por dowlink1
0 Respuestas
10 Vistas
Último mensaje 27 de marzo de 2014, 09:22:42
por Ptuaztran
0 Respuestas
13 Vistas
Último mensaje 05 de abril de 2014, 23:43:35
por dowlink1


Sos el Visitante
© XPLAYO
Bienvenid@ Visitante Registrate Gratis y Descarga Sin Restricciones