17 de abril de 2014, 06:57:22
Bienvenido(a), Visitante. Por favor, ingresa o regístrate.
482153 Mensajes en 457842 Temas - por 3163 Usuarios - Último usuario: lucilia



Cuarentena Terminal(Quarantine 2)[DVDRip][Castellano][Thriller][2011] [Mega] (Leído 1194 veces)

0 Usuarios y 1 Visitante están viendo este tema.

adystanley

  • Visitante

 





SINOPSIS

Secuela del remake americano de [REC], Quarantine. Continúa la historia después del final de ésta, esa misma noche. En un avión con destino Nashville, un pasajero da muestras de una violenta enfermedad similar a la rabia. El avión hace un aterrizaje de emergencia en un aeropuerto, momento en el que Jenny, una azafata de vuelo sin demasiada experiencia, es encargada de controlar a los pasajeros.


INFORMACION

Ficha Técnica:
Título original: Quarantine 2: Terminal
Año: 2011
Duración: 86 min.
País: Estados Unidos
Director: John Pogue
Guión: John Pogue
Fotografía: Matthew Irving
Reparto: Mercedes Masohn, Josh Cooke, Mattie Liptak, Ignacio Serricchio, Noree Victoria, Bre Blair, Lamar Stewart, George Back
Productora: Third Street Pictures / RCR Media Group
Género: Horror | Mystery | Sci-Fi | Thriller



FICHA TECNICA

Cuarentena.Terminal.BY.ABOGAO.avi
Format                           : AVI
Format/Info                      : Audio Video Interleave
File size                        : 970 MiB
Duration                         : 1h 22mn
Overall bit rate                 : 1 638 Kbps

Video
ID                               : 0
Format                           : MPEG-4 Visual
Format profile                   : Advanced Simple@L5
Format settings, BVOP            : 2
Format settings, QPel            : No
Format settings, GMC             : No warppoints
Format settings, Matrix          : Default (H.263)
Codec ID                         : XVID
Codec ID/Hint                    : XviD
Duration                         : 1h 22mn
Bit rate                         : 1 181 Kbps
Width                            : 720 pixels
Height                           : 400 pixels
Display aspect ratio             : 16:9
Frame rate                       : 25.000 fps
Color space                      : YUV
Chroma subsampling               : 4:2:0
Bit depth                        : 8 bits
Scan type                        : Progressive
Compression mode                 : Lossy
Bits/(Pixel*Frame)               : 0.164
Stream size                      : 699 MiB (72%)
Writing library                  : XviD 1.1.2 (UTC 2006-11-01)

Audio
ID                               : 1
Format                           : AC-3
Format/Info                      : Audio Coding 3
Mode extension                   : CM (complete main)
Codec ID                         : 2000
Duration                         : 1h 22mn
Bit rate mode                    : Constant
Bit rate                         : 448 Kbps
Channel(s)                       : 6 channels
Channel positions                : Front: L C R, Side: L R, LFE
Sampling rate                    : 48.0 KHz
Bit depth                        : 16 bits
Compression mode                 : Lossy
Stream size                      : 265 MiB (27%)
Alignment                        : Aligned on interleaves
Interleave, duration             : 40 ms (1.00 video frame)

CAPTURAS





DESCARGA


http://www.wupload.com/file/92628003/Cuarentena.Terminal.BY.ABOGAO.avi.part1.rar
http://www.wupload.com/file/92628004/Cuarentena.Terminal.BY.ABOGAO.avi.part2.rar
http://www.wupload.com/file/92628005/Cuarentena.Terminal.BY.ABOGAO.avi.part3.rar


celocell

  • Visitante
Re:Cuarentena Terminal(Quarantine 2)[DVDRip][Castellano][Thriller][2011]
« Respuesta #1 : 15 de abril de 2012, 02:44:10 »
............
« Última Modificación: 15 de abril de 2012, 02:46:12 por celocell »

Tags:
 

Comentarios de Facebook

Related Topics

  Asunto / Iniciado por Respuestas Último mensaje
0 Respuestas
41 Vistas
Último mensaje 06 de abril de 2013, 09:23:50
por iceblue
0 Respuestas
48 Vistas
Último mensaje 13 de abril de 2013, 03:14:05
por abogao


Sos el Visitante
© XPLAYO
Bienvenid@ Visitante Registrate Gratis y Descarga Sin Restricciones